#TITLE:I'll Be Back;
#SUBTITLE:Expi3nze;
#ARTIST:2PM;
#TITLETRANSLIT:;
#SUBTITLETRANSLIT:;
#ARTISTTRANSLIT:;
#CREDIT:;
#BANNER:bn.png;
#BACKGROUND:bg.png;
#LYRICSPATH:;
#CDTITLE:;
#MUSIC:I'll Be Back.mp3;
#OFFSET:-0.282;
#SAMPLESTART:59.589;
#SAMPLELENGTH:12.000;
#SELECTABLE:YES;
#BPMS:0.000=129.999,2.000=65.001,3.000=64.999,5.000=65.001,6.000=64.999,8.000=65.001,9.000=64.999,10.000=130.005,11.000=129.999,16.000=130.005,17.000=129.999,23.000=130.005,24.000=129.999,29.000=130.005,30.000=129.999,36.000=130.005,37.000=129.999,41.000=260.024,41.333=65.006,41.500=260.024,41.833=65.006,42.000=130.005,43.000=129.999,48.000=130.005,49.000=129.999,53.500=65.001,53.833=260.024,54.500=130.012,54.625=260.024,54.875=65.006,55.000=130.012,55.125=260.024,55.375=65.006,55.500=130.012,55.625=260.024,55.875=65.006,56.000=130.012,56.125=260.024,56.375=65.006,56.500=130.012,57.000=129.999,63.000=130.005,64.000=129.999,70.000=130.005,71.000=129.999,76.000=130.005,77.000=129.999,83.000=130.005,84.000=129.999,89.000=130.005,90.000=129.999,96.000=130.005,97.000=129.999,103.000=130.005,104.000=129.999,109.000=130.005,110.000=129.999,116.000=130.005,117.000=129.999,118.000=65.006,118.167=260.024,118.500=65.006,118.667=260.024,119.000=65.006,119.167=260.024,119.500=65.006,119.667=260.024,120.000=65.006,120.167=260.024,120.500=65.006,120.667=260.024,121.000=65.006,121.167=260.024,121.500=129.999,122.000=130.005,123.000=129.999,128.000=130.005,129.000=129.999,135.000=130.005,136.000=129.999,137.000=260.024,137.333=65.006,137.500=260.024,137.833=65.006,138.000=130.005,139.000=129.999,145.000=130.005,146.000=129.999,150.000=65.001,150.333=260.024,151.000=65.001,151.333=260.024,152.000=130.005,153.000=260.024,153.333=65.006,153.500=260.024,153.833=65.006,154.000=130.005,155.000=129.999,161.000=130.005,162.000=129.999,167.000=130.005,168.000=129.999,169.000=260.024,169.333=65.006,169.500=260.024,169.833=65.006,170.000=130.005,171.000=129.999,177.000=130.005,178.000=129.999,182.000=65.001,182.333=260.024,183.000=65.001,183.333=260.024,184.000=130.005,185.000=129.999,191.000=130.005,192.000=129.999,198.000=130.005,199.000=129.999,205.000=130.005,206.000=129.999,211.000=130.005,212.000=129.999,218.000=130.005,219.000=129.999,224.000=130.005,225.000=129.999,231.000=130.005,232.000=129.999,233.000=65.006,233.167=260.024,233.500=65.006,233.667=260.024,234.000=129.999,235.000=130.005,236.000=129.999,242.000=130.005,243.000=129.999,248.000=260.024,248.333=65.006,248.500=260.024,248.833=65.006,249.000=129.999,250.000=130.005,251.000=129.999,253.000=259.998,255.000=129.999,256.000=130.005,257.000=129.999,263.000=130.005,264.000=129.999,269.000=130.005,270.000=260.024,270.250=65.006,270.375=130.012,270.500=260.024,270.750=65.006,270.875=130.012,271.000=129.999,274.000=130.005,275.000=129.999,280.000=130.005,281.000=129.999,283.000=65.001,283.333=260.024,284.000=65.001,284.333=260.024,285.000=129.999,286.000=260.024,286.250=65.006,286.375=130.012,286.500=260.024,286.750=65.006,286.875=130.012,287.000=129.999,290.000=130.005,291.000=129.999,296.000=130.005,297.000=129.999,302.000=260.024,302.250=65.006,302.375=130.012,302.500=260.024,302.750=65.006,302.875=130.012,303.000=129.999,306.000=130.005,307.000=129.999,312.000=130.005,313.000=129.999,315.000=65.001,315.333=260.024,316.000=65.001,316.333=260.024,317.000=259.921,317.250=65.006,317.375=130.012,317.500=260.024,317.750=65.006,317.875=130.012,318.000=65.001,318.333=260.024,319.000=65.001,320.000=64.999,321.000=129.999,322.000=130.005,323.000=129.999;
#STOPS:;
#BGCHANGES:;
// cache tags:
#FIRSTBEAT:2.000;
#LASTBEAT:320.000;
#SONGFILENAME:Songs/Super Dancer Online/I'll Be Back/I'll Be Back.sm;
#HASMUSIC:1;
#HASBANNER:1;
#MUSICLENGTH:155.719;
// end cache tags

//---------------dance-single - ----------------
#NOTES:
     dance-single:
     :
     Hard:
     13:
     1.000,1.000,1.000,0.045,1.000,894.000,263.000,7.000,0.000,18.000:
0000
0000
0000
0000
0000
0000
0000
0000
0010
0000
0000
0110
0000
0000
0010
0000
,
0100
0010
0000
0001
0000
0000
1000
0000
0011
1000
0000
0010
0100
0000
0001
0000
,
1000
0011
0000
1000
0000
0000
0010
0000
0010
0000
0000
0000
0010
0000
1000
0010
,
1001
0100
0010
0000
0010
0000
0000
0000
1001
0000
0000
0000
1001
0000
0000
0000
,
1001
0000
0000
0000
0110
0000
1001
0000
0110
0000
0000
0001
0110
0000
0001
0010
,
0100
0000
0010
0000
1010
0000
0000
0000
0020
0000
0000
0000
1000
0100
1000
0000
,
0100
1000
0001
0000
0100
1000
0001
0000
0131
0000
0001
0000
1100
0000
0010
0100
,
0010
0000
1000
0100
1010
0000
0001
0010
0100
0000
1000
0010
0101
0000
0010
0100
,
0010
0000
0001
0100
0011
0000
0100
1000
0010
0000
0100
0010
0101
0000
0010
1000
,
0100
0000
0001
0100
1001
0000
0010
1000
0100
0000
0010
0001
1100
0000
0001
0010
,
0001
0000
0010
0000
1100
0000
1001
0000
0011
0000
1000
0100
1010
0000
0010
0100
,
0001
0000
1000
0010
0101
0000
0010
1000
0100
0000
0010
0001
1010
0000
0100
0001
,
0010
0000
0100
1000
0011
0000
1000
0100
0010
0000
0001
0100
0011
0000
0100
1000
,
0002
0000
0010
0000
0110
0000
0010
0003
0000
0000
0010
0000
0110
0000
1010
0000
,
0011
0000
1010
0000
1000
0010
0100
0000
0101
0000
0000
0000
0110
0000
0000
1100
,
0000
0000
0000
0000
0101
0000
0000
0000
1001
0000
0000
0000
0110
0000
0000
0011
,
0000
0000
1100
0000
0000
1001
0000
0000
1001
0000
0000
0000
0011
0000
0000
1010
,
0000
0000
0000
0000
1010
0000
0000
0000
0011
0000
0000
0000
1001
0000
0000
1000
,
0010
0100
1000
0010
0101
0010
1000
0000
0010
0000
0000
0000
0110
0000
0000
0110
,
0000
0000
0000
0000
1100
0000
0000
0000
1001
0000
0000
0000
1001
0000
0000
1001
,
0000
0000
0011
0000
0000
1001
0000
0000
1100
0000
0000
0000
0110
0000
0000
0110
,
0000
0000
0011
0000
1010
0011
1010
0000
,
0000
0000
1001
0000
0011
0000
1001
0000
0010
0100
0010
0001
1100
0000
0010
0100
,
0001
0000
1000
0010
0101
1000
0010
0000
0100
0010
0001
0100
1001
0010
0100
0000
,
0010
0000
1000
0010
1100
0000
0010
0001
0100
0010
0001
1000
0101
1000
0010
0100
,
0001
1000
0010
0000
0101
0000
0010
0000
1000
0100
0010
1000
0011
0100
1000
0000
,
0011
0000
1000
0000
0011
1000
0100
0000
0020
0000
0100
0000
1100
0000
0100
0000
,
0001
0000
0100
0001
1100
0000
0100
0000
0230
0000
0010
0000
1001
0000
0010
0000
,
1000
0001
0010
1000
0011
0000
1000
0000
0302
0000
0100
0000
1010
0000
0100
0010
,
1000
0010
0110
0010
0113
0100
0101
0001
,
1001
0000
1100
0000
1010
0000
1000
0000
0011
1000
0100
0010
1001
0100
1000
0010
,
0101
0010
1000
0010
1100
0001
0010
0100
1010
0100
1000
0001
0110
0001
1000
0010
,
0101
0010
1000
0010
1001
0100
1000
0010
1100
0001
0010
1000
0101
1000
0010
0100
,
1001
0010
0001
1000
0110
1000
0010
0100
1010
0100
1000
0010
1001
0100
0010
0001
,
1100
0001
0010
1000
0011
0000
1001
0000
1100
0000
0010
0100
1001
0010
0001
0100
,
1010
0100
0001
1000
0011
0100
1000
0010
0101
0010
0001
0100
0011
0100
0001
0010
,
0101
1000
0010
0100
0011
1000
0100
0010
1001
0100
1000
0001
1100
0001
0010
0100
,
0010
1000
0100
1001
1001
0010
0001
0000
1110
0000
0000
0000
1011
0000
0000
0000
,
1010
0000
0000
0000
1100
0000
1001
0000
0011
1000
0100
0010
1001
0100
1000
0010
,
0101
0010
1000
0010
1100
0001
0010
0100
1010
0100
1000
0001
0110
0001
1000
0010
,
0101
0010
1000
0010
1001
0100
1000
0010
1100
0001
0010
1000
0101
1000
0010
0100
,
1001
0010
0001
1000
0110
1000
0010
0100
1010
0100
1000
0010
1001
0100
0010
0001
,
1100
0001
0010
1000
0011
0000
1001
0000
1100
0000
0010
0100
1001
0010
0001
0100
,
1010
0100
0001
1000
0011
0100
1000
0010
0101
0010
0001
0100
0011
0100
0001
0010
,
0101
1000
0010
0100
0011
1000
0100
0010
1001
0100
1000
0001
1100
0001
0100
0010
,
1001
0100
0000
0010
0110
0110
0010
0000
1110
0000
0000
0000
1011
0000
0000
0000
,
1010
0000
0001
0010
0101
0000
1001
0000
1001
0000
0010
0100
0001
0000
0010
0100
,
1000
0000
0000
0000
0101
0000
0000
0000
1000
0100
0010
0100
0001
0010
0100
0000
,
0010
0000
0000
0000
0101
0000
0000
0000
0010
0000
0100
0010
1000
0000
0010
0100
,
0001
1000
0010
0110
0010
0000
0110
0000
,
0011
0000
0000
0000
0101
0000
1100
0000
0010
0100
0001
0000
0010
0000
1000
0100
,
0010
0000
0100
0010
0001
0000
1100
0000
1000
0000
0000
0000
1010
0000
0000
0000
,
1000
0100
0010
0000
1100
0000
0000
0000
0010
0100
0010
0000
1010
0000
0010
0100
,
0010
0000
0001
0010
0101
0000
1000
0100
1010
0000
0001
0010
0101
0000
1000
0100
,
1010
0000
0001
0010
0001
0000
0100
0010
0001
0000
1000
0010
1100
0000
0010
0100
,
0001
0000
0010
0100
1010
0000
0100
0010
0001
0000
1000
0010
0101
0000
0010
0100
,
0010
0000
0001
0100
0011
0000
0100
1000
0010
0000
0100
0010
0101
0000
0010
1000
,
0100
0000
0001
0100
1001
0000
0010
1000
0100
0000
0010
0001
1100
0000
0001
0010
,
0001
0000
0010
0000
1010
0000
0110
0000
0010
0000
1000
0100
1010
0000
0010
0100
,
0001
0000
1000
0010
0101
0000
0010
1000
0100
0000
0010
0001
1010
0000
0100
0001
,
0010
0000
0100
1000
0011
0000
1000
0100
0010
0000
0001
0100
0011
0000
1000
0100
,
1010
0000
0100
0000
0001
0000
1010
1100
1010
0000
0001
0000
1100
0000
0001
0000
,
1100
0000
1001
0000
0101
0000
0001
0000
2000
0000
0100
0000
0100
0000
0010
0100
,
0001
0000
0010
0001
0010
0100
0001
0100
0010
0001
0010
0000
3011
1000
0100
0010
,
1001
0100
1000
0010
0101
0010
1000
0010
1100
0001
0010
0100
1010
0100
1000
0001
,
0110
0001
1000
0010
0101
0010
1000
0010
1001
0100
1000
0010
1100
0001
0010
1000
,
0101
1000
0010
0100
1001
0010
0001
1000
0110
1000
0010
0100
1010
0100
1000
0010
,
1001
0100
0010
0001
1100
0001
0010
1000
0011
0000
1001
0000
1100
0000
0010
0100
,
1001
0010
0001
0100
1010
0100
0001
1000
0011
0100
1000
0010
0101
0010
0001
0100
,
0011
0100
0001
0010
0101
1000
0010
0100
0011
1000
0100
0010
1001
0100
1000
0001
,
1100
0001
0010
0100
0010
1000
0100
1001
1001
0010
0001
0000
1110
0000
0000
0000
,
1011
0000
0000
0000
1010
0000
0000
0000
1100
0000
1001
0000
0011
1000
0100
0010
,
1001
0100
1000
0010
0101
0010
1000
0010
1100
0001
0010
0100
1010
0100
1000
0001
,
0110
0001
1000
0010
0101
0010
1000
0010
1001
0100
1000
0010
1100
0001
0010
1000
,
0101
1000
0010
0100
1001
0010
0001
1000
0110
1000
0010
0100
1010
0100
1000
0010
,
1001
0100
0010
0001
1100
0001
0010
1000
0011
0000
1001
0000
1100
0000
0010
0100
,
1001
0010
0001
0100
1010
0100
0001
1000
0011
0100
1000
0010
0101
0010
0001
0100
,
0011
0100
0001
0010
0101
1000
0010
0100
0011
1000
0100
0010
1001
0100
1000
0001
,
1100
0001
0100
0010
1001
0100
0000
0010
0110
0110
0010
0000
1110
0000
0000
0000
,
1011
0000
0000
0000
0011
0000
1010
0000
0110
0010
0000
0000
0020
0000
0000
0000
,
0030
0000
0000
0000
,
0000
0000
0000
0000
,
0000
0000
0000
0000
,
0000
0000
0000
0000
,
0000
0000
0000
0000
,
0000
0000
0000
0000
,
0000
0000
0000
0000
,
0000
0000
0000
0000
,
0000
0000
0000
0000
,
0000
0000
0000
0000
,
0000
0000
0000
0000
,
0000
0000
0000
0000
,
0000
0000
0000
0000
,
0000
0000
0000
0000
,
0000
0000
0000
0000
,
0000
0000
0000
0000
,
0000
0000
0000
0000
,
0000
0000
0000
0000
,
0000
0000
0000
0000
,
0000
0000
0000
0000
;
